Mira cómo conocí a tu madre en línea temporada 5

Teresa Barcel√≥ as Ana de Matos. Alberto D'Angelo as Juan. Hola! Por favor, quisiera que me ayudaran con la traducci√≥n de la frase: -No soy tu madre, tampoco tu ni√Īera. C√≥mo conoc√≠ a vuestra puta madre EP by The Lost Omelette-makers, released 02 October 2014 1. Pr√≥logo.D√°s m√°is pena que Michelle Obama po√Īendo cara de pena 2. Afasta que vou √° festa!!!de Queiruja 3.

Victorious Capitulos Completos En Espa Ol Latino Temporada 1

Una visita obligada para las personas que creen en historias de amor poco convencionales. 21/3/2021 ¬∑ Todos los cap√≠tulos de C√≥mo conoc√≠ a vuestra madre. No te pierdas ning√ļn episodio de C√≥mo conoc√≠ a vuestra madre con FormulaTV.

Novelas Capitulos Completos

Sinopsis. Ver m√°s.

Madre Novela Turca Capitulos

Tarde lo conocí lo conocí. Lo que diga el corazón, Niche Línea de falla Mamá Ya Crecí Para ver el arcoiris hay que esperar a que pase la lluvia 5 Bodas. Amar de nuevo. Amo la cocina. Fuera del menu. Hombre margarita.

AS M√©xico - Diario online de deportes. F√ļtbol MX, NFL, motor .


Bit rate : 103 b/s

Netflix, Hulu, CBS, ESPN, Amazon Prime Video y otros. ¡Ver Cómo conocí a vuestra madre en streaming con NordVPN! Scan type : Progressive Stream size : 15.3 KiB (0%) Stream size : 60.8 MiB (9%) Codec ID/Info : UTF-8 Plain Text Language : Spanish Bit depth : 8 bits Format version : Version 4 File size : 686 MiB Commercial name : Dolby Digital No es de Como conocí a tu madre: los 5 actores que la sostienen. Cómo ver How I met your mother Las 9 temporadas de la serie completa online pueden verse en Amazon Prime Video , en HD y con subtítulos Barney estaba aterrorizado de conducir en las primeras temporadas de Cómo conocí a vuestra madre.

Victorious Capitulos Completos En Espa Ol Latino Temporada 1

Como Conoci a Vuestra Madre - Temporada 7 completa. Iyok Ami, which means Madre Tierre or Mother Earth, is located in a cloud forest in the high mountains of Cartago at an altitude of 2800m. The philosophy and main objective of the reserve Iyok Ami is the conservation and protection of its natural resources. Use features like bookmarks, note taking and highlighting while reading C√≥mo conoc√≠ a tu madre (D√≠ganle que me enamora cuando sonr√≠e n¬ļ 1) (Spanish Edition). Primero mira a tu madre cojudo.

Mira cómo conocí a tu madre en línea y mira cada temporada .

Blackjack, Ruleta, Slots y m√°s. Wiki series y peliculas online Gratis entra ahora y mira tu pelicula o serie sin sitios para ver tus series favoritas y lo mejor es que es gratis y en varios idiomas como Fullmetal Alchemist audio Latino Tras perder a su madre Alphonse y Edward Elric Breaking Bad Temporada 5 Audio Latino Temporada Completa Final . Ted comienza a dar clases de arquitectura en universidad pero se confunde de sal√≥n y termina en el sal√≥n de su futura esposa, sin darse cuenta de eso. Tras un largo tiempo de ‚Äúrelaci√≥n‚ÄĚ Barney y Robin siguen sin definir que tienen Como conoc√≠ a tu madre capitulos completos posted a video to playlist Temporada 5. Temporada 5 Capitulo 16 "Enganchados".